[Login] or [Signup]
Login
Username:
Password:
[Signup]
[Recover Account]

Poll


You must be logged in to view polls



Advertisement

Torrent Details For "Asuran (2019) 720p WEBRip x264 AAC Multi [Hin,Tam,Mal] Esub"

Asuran (2019) 720p WEBRip x264 AAC Multi [Hin,Tam,Mal] Esub

Download this torrent
Health:
Seeds: 0
Leechers: 0
Completed:
Last Checked: 02-03-2021 11:53:13
Tracked: EXTERNAL

Category:Movies > HD
Lang:Hindi  Hindi
Total Size:1.58 GB
Info Hash:d67f9ed1692f19d419ce8872b66f03188c221aef
Added By:aiovideo
Date Added:02-03-2021 11:53:13
Views:119
Hits:21




Ratings:rating: 5.0/5 (5.0 Out Of 5) 2 users have rated this torrent (Log in to rate it)

Details

Name:Asuran (2019) 720p WEBRip x264 AAC Multi [Hin,Tam,Mal] Esub
Description:
Asuran (2019)
The teenage son of a farmer from an underprivileged caste kills a rich, upper caste landlord.
Will the farmer, a loving father and a pacifist by heart, be able to save his hot-blooded son is the rest of the story.

Cast: Dhanush, Manju Warrier, Prakash Raj
Director: Vetrimaaran.

Format : Matroska
Format version : Version 4
File size : 1.58 GiB
Duration : 2 h 19 min
Overall bit rate : 1 627 kb/s

Video
ID : 1
Format : AVC
Format/Info : Advanced Video Codec
Format profile : High@L4.1
Format settings : CABAC / 4 Ref Frames
Format settings, CABAC : Yes
Format settings, Reference frames : 4 frames
Codec ID : V_MPEG4/ISO/AVC
Duration : 2 h 19 min
Bit rate : 1 279 kb/s
Width : 1 280 pixels
Height : 528 pixels

Audio #1
ID : 2
Format : AAC LC
Format/Info : Advanced Audio Codec Low Complexity
Codec ID : A_AAC-2
Duration : 2 h 19 min
Bit rate : 115 kb/s
Channel(s) : 2 channels
Channel layout : L R
Sampling rate : 44.1 kHz
Frame rate : 43.066 FPS (1024 SPF)
Compression mode : Lossy
Stream size : 115 MiB (7%)
Language : Hindi
Default : Yes
Forced : Yes

Audio #2
ID : 3
Format : AAC LC
Format/Info : Advanced Audio Codec Low Complexity
Codec ID : A_AAC-2
Duration : 2 h 19 min
Bit rate : 125 kb/s
Channel(s) : 2 channels
Channel layout : L R
Sampling rate : 44.1 kHz
Frame rate : 43.066 FPS (1024 SPF)
Compression mode : Lossy
Stream size : 125 MiB (8%)
Language : Tamil
Default : No
Forced : No

Audio #3
ID : 4
Format : AAC LC
Format/Info : Advanced Audio Codec Low Complexity
Codec ID : A_AAC-2
Duration : 2 h 19 min
Bit rate : 124 kb/s
Channel(s) : 2 channels
Channel layout : L R
Sampling rate : 44.1 kHz
Frame rate : 43.066 FPS (1024 SPF)
Compression mode : Lossy
Stream size : 124 MiB (8%)
Language : Malayalam
Default : No
Forced : No

Text
ID : 5
Format : UTF-8
Codec ID : S_TEXT/UTF8
Codec ID/Info : UTF-8 Plain Text
Duration : 2 h 10 min
Bit rate : 78 b/s
Count of elements : 2059
Stream size : 75.3 KiB (0%)
Language : English
Default : Yes
Forced : No



Ratings:rating: 5.0/5 (5.0 Out Of 5) 2 users have rated this torrent (Log in to rate it)

  


Tracker:



File List: 


Comments

NOCOMMENTS

Online Users
No Users Online


Advertisement

Navigation

Facebook
Facebook Page Facebook Group

Advertisement

Powered by TT v3.0 -|- Page Generated In 0.029142 secs.
www.allinonetorrent.com -|- -|- RSS Feed -|- Feed Info
Theme By: Advanced IT
Flag Visitor Analysis